Series Never.Have.I.Ever.S01.1080p.NF.WEBRip.DDP5.1.x264-Turkish.Sub+29.Lang.Subs[Seed_X]

seedx

Yeni Üye
Staff member
Moderator
A NETFLIX ORIGINALS PRESENTS




Video Codec
Rich (BB code):
Video
ID : 1
Format : AVC
Format/Info : Advanced Video Codec
Format profile : High@L4
Format settings : CABAC / 4 Ref Frames
Format settings, CABAC : Yes
Format settings, Reference frames : 4 frames
Codec ID : V_MPEG4/ISO/AVC
Duration : 24 min 35 s
Bit rate mode : Variable
Bit rate : 7 188 kb/s
Maximum bit rate : 20.0 Mb/s
Width : 1 920 pixels
Height : 1 080 pixels
Display aspect ratio : 16:9
Frame rate mode : Constant
Frame rate : 23.976 (24000/1001) FPS
Color space : YUV
Chroma subsampling : 4:2:0
Bit depth : 8 bits
Scan type : Progressive
Bits/(Pixel*Frame) : 0.145
Stream size : 1.23 GiB (92%)
Writing library : x264 core 148 r2717 0d2410d
Audio Codec
Rich (BB code):
Audio
ID : 2
Format : E-AC-3
Format/Info : Enhanced AC-3
Commercial name : Dolby Digital Plus
Codec ID : A_EAC3
Duration : 24 min 36 s
Bit rate mode : Constant
Bit rate : 640 kb/s
Channel(s) : 6 channels
Channel layout : L R C LFE Ls Rs
Sampling rate : 48.0 kHz
Frame rate : 31.250 FPS (1536 SPF)
Compression mode : Lossy
Stream size : 113 MiB (8%)
Language : English
Service kind : Complete Main
Default : Yes
Forced : No
Subtitle Codec
Rich (BB code):
Text #1
ID : 3
Format : UTF-8
Codec ID : S_TEXT/UTF8
Codec ID/Info : UTF-8 Plain Text
Duration : 22 min 53 s
Bit rate : 115 b/s
Count of elements : 496
Stream size : 19.4 KiB (0%)
Title : SDH
Language : English
Default : No
Forced : No

Text #26
ID : 28
Format : UTF-8
Codec ID : S_TEXT/UTF8
Codec ID/Info : UTF-8 Plain Text
Duration : 23 min 49 s
Bit rate : 90 b/s
Count of elements : 372
Stream size : 15.9 KiB (0%)
Language : Turkish
Default : No
Forced : No
Click on Below Link to Watch Online & Download All the Videos at a Time.

You need to like or reply to this in order to see this content.

Click Below Links to Download or Watch Separate Videos by Episodes.
Never.Have.I.Ever.S01E01.Pilot.1080p.NF.WEB-DL.DDP5.1.H.264-Seed_X
You need to like or reply to this in order to see this content.

Never.Have.I.Ever.S01E02.had.sex.with.Paxton.Hall-Yoshida.1080p.NF.WEB-DL.DDP5.1.H.264-Seed_X
You need to like or reply to this in order to see this content.
Never.Have.I.Ever.S01E03.gotten.drunk.with.the.popular.kids.1080p.NF.WEB-DL.DDP5.1.H.264-Seed_X
You need to like or reply to this in order to see this content.
Never.Have.I.Ever.S01E04.felt.super.Indian.1080p.NF.WEB-DL.DDP5.1.H.264-Seed_X
You need to like or reply to this in order to see this content.
Never.Have.I.Ever.S01E05.started.a.nuclear.war.1080p.NF.WEB-DL.DDP5.1.H.264-Seed_X
You need to like or reply to this in order to see this content.
Never.Have.I.Ever.S01E06.been.the.loneliest.boy.in.the.world.1080p.NF.WEB-DL.DDP5.1.H.264-Seed_X
You need to like or reply to this in order to see this content.
Never.Have.I.Ever.S01E07.been.a.big.fat.liar.1080p.NF.WEB-DL.DDP5.1.H.264-Seed_X
You need to like or reply to this in order to see this content.
Never.Have.I.Ever.S01E08.pissed.off.everyone.I.know.1080p.NF.WEB-DL.DDP5.1.H.264-Seed_X
You need to like or reply to this in order to see this content.
Never.Have.I.Ever.S01E09.had.to.be.on.my.best.behavior.1080p.NF.WEB-DL.DDP5.1.H.264-Seed_X
You need to like or reply to this in order to see this content.
Never.Have.I.Ever.S01E10.said.Im.sorry.1080p.NF.WEB-DL.DDP5.1.H.264-Seed_X
You need to like or reply to this in order to see this content.

Thanks Guys Please Like and Share Site....♥




 

kingston

Yeni Üye
Üye
A NETFLIX ORIGINALS PRESENTS




Video Codec
Rich (BB code):
Video
ID : 1
Format : AVC
Format/Info : Advanced Video Codec
Format profile : High@L4
Format settings : CABAC / 4 Ref Frames
Format settings, CABAC : Yes
Format settings, Reference frames : 4 frames
Codec ID : V_MPEG4/ISO/AVC
Duration : 24 min 35 s
Bit rate mode : Variable
Bit rate : 7 188 kb/s
Maximum bit rate : 20.0 Mb/s
Width : 1 920 pixels
Height : 1 080 pixels
Display aspect ratio : 16:9
Frame rate mode : Constant
Frame rate : 23.976 (24000/1001) FPS
Color space : YUV
Chroma subsampling : 4:2:0
Bit depth : 8 bits
Scan type : Progressive
Bits/(Pixel*Frame) : 0.145
Stream size : 1.23 GiB (92%)
Writing library : x264 core 148 r2717 0d2410d
Audio Codec
Rich (BB code):
Audio
ID : 2
Format : E-AC-3
Format/Info : Enhanced AC-3
Commercial name : Dolby Digital Plus
Codec ID : A_EAC3
Duration : 24 min 36 s
Bit rate mode : Constant
Bit rate : 640 kb/s
Channel(s) : 6 channels
Channel layout : L R C LFE Ls Rs
Sampling rate : 48.0 kHz
Frame rate : 31.250 FPS (1536 SPF)
Compression mode : Lossy
Stream size : 113 MiB (8%)
Language : English
Service kind : Complete Main
Default : Yes
Forced : No
Subtitle Codec
Rich (BB code):
Text #1
ID : 3
Format : UTF-8
Codec ID : S_TEXT/UTF8
Codec ID/Info : UTF-8 Plain Text
Duration : 22 min 53 s
Bit rate : 115 b/s
Count of elements : 496
Stream size : 19.4 KiB (0%)
Title : SDH
Language : English
Default : No
Forced : No

Text #26
ID : 28
Format : UTF-8
Codec ID : S_TEXT/UTF8
Codec ID/Info : UTF-8 Plain Text
Duration : 23 min 49 s
Bit rate : 90 b/s
Count of elements : 372
Stream size : 15.9 KiB (0%)
Language : Turkish
Default : No
Forced : No
Click on Below Link to Watch Online & Download All the Videos at a Time.

[Hidden content]



Click Below Links to Download or Watch Separate Videos by Episodes.
Never.Have.I.Ever.S01E01.Pilot.1080p.NF.WEB-DL.DDP5.1.H.264-Seed_X
[Hidden content]
Never.Have.I.Ever.S01E02.had.sex.with.Paxton.Hall-Yoshida.1080p.NF.WEB-DL.DDP5.1.H.264-Seed_X
[Hidden content]
Never.Have.I.Ever.S01E03.gotten.drunk.with.the.popular.kids.1080p.NF.WEB-DL.DDP5.1.H.264-Seed_X
[Hidden content]
Never.Have.I.Ever.S01E04.felt.super.Indian.1080p.NF.WEB-DL.DDP5.1.H.264-Seed_X
[Hidden content]
Never.Have.I.Ever.S01E05.started.a.nuclear.war.1080p.NF.WEB-DL.DDP5.1.H.264-Seed_X
[Hidden content]
Never.Have.I.Ever.S01E06.been.the.loneliest.boy.in.the.world.1080p.NF.WEB-DL.DDP5.1.H.264-Seed_X
[Hidden content]
Never.Have.I.Ever.S01E07.been.a.big.fat.liar.1080p.NF.WEB-DL.DDP5.1.H.264-Seed_X
[Hidden content]
Never.Have.I.Ever.S01E08.pissed.off.everyone.I.know.1080p.NF.WEB-DL.DDP5.1.H.264-Seed_X
[Hidden content]
Never.Have.I.Ever.S01E09.had.to.be.on.my.best.behavior.1080p.NF.WEB-DL.DDP5.1.H.264-Seed_X
[Hidden content]
Never.Have.I.Ever.S01E10.said.Im.sorry.1080p.NF.WEB-DL.DDP5.1.H.264-Seed_X
[Hidden content]

Thanks Guys Please Like and Share Site....♥




thanks for the series dude upload riverdale also
 
Top
Lütfen Javascript'i etkinleştirin!Javascript'i etkinleştirin!